1. THÔNG BÁO TUYỂN ADMIN DIỄN ĐÀN 2013
    Tìm kiếm nhà trọ - Ở ghép
    THÔNG BÁO BÁN ÁO SPKT.NET CHO THÀNH VIÊN DIỄN ĐÀN


    HÃY TÌM KIẾM Ở ĐÂY TRƯỚC KHI ĐẶT CÂU HỎI
    {xen:phrase loading}

I Am Number Four (2011) mHD-Tôi là số 4 (Thuyết mình + Sub Việt)

Thảo luận trong 'Phim Âu-Mỹ' bắt đầu bởi vanbinh_21, 7 Tháng năm 2011.

  1. vanbinh_21 <marquee><b><i>--- waiting for you... mãi chờ em..

    Số bài viết: 2,077
    Đã được thích: 52
    Điểm thành tích: 48
    I Am Number Four 2011 mHD BluRay x264-EPiK
    Tôi là Số 4


    [IMG]


    Tên phim: I Am Number Four (2011)
    Đạo diễn: D.J. Caruso
    Kịch bản: Alfred Gough (screenplay), Miles Millar (screenplay)
    Diễn viên chính: Alex Pettyfer, Timothy Olyphant and Dianna Agron
    Thể loại: Action | Sci-Fi | Thriller
    Đánh giá: 6.3/10 (13,314 votes)
    Thời lượng: 109 mins
    Ngôn ngữ: English
    Quốc gia: USA
    Complete name : I Am Number Four 2011 mHD BluRay x264-EPiK Format : Matroska File size : 1.74 GiB Duration : 1h 49mn Overall bit rate : 2 276 Kbps Movie name : EPiK ~ all.hdvnbits.org Encoded date : UTC 2011-05-06 02:13:22 Writing application : mkvmerge v4.7.0 ('Just Like You Imagined') built on Apr 21 2011 01:13:14 Writing library : libebml v1.2.0 + libmatroska v1.1.0 Video ID : 1 Format : AVC Format/Info : Advanced Video Codec Format profile : High@L4.1 Format settings, CABAC : Yes Format settings, ReFrames : 8 frames Codec ID : V_MPEG4/ISO/AVC Duration : 1h 49mn Bit rate : 1 783 Kbps Width : 1 280 pixels Height : 688 pixels Display aspect ratio : 1.860 Frame rate : 23.976 fps Color space : YUV Chroma subsampling : 4:2:0 Bit depth : 8 bits Scan type : Progressive Bits/(Pixel*Frame) : 0.084 Stream size : 1.36 GiB (78%) Title : EPiK ~ all.hdvnbits.org Writing library : x264 core 115 r1947 b5a8ad7 Encoding settings : cabac=1 / ref=8 / deblock=1:-3:-3 /
    analyse=0x3:0x113 / me=umh / subme=9 / psy=1 / psy_rd=1.00:0.00 /
    mixed_ref=1 / me_range=16 / chroma_me=1 / trellis=2 / 8x8dct=1 /
    cqm=0 / deadzone=21,11 / fast_pskip=0 / chroma_qp_offset=-2 / threads=6 /
    sliced_threads=0 / nr=0 / decimate=0 / interlaced=0 / bluray_compat=0 /
    constrained_intra=0 / bframes=7 / b_pyramid=2 / b_adapt=2 / b_bias=0 /
    direct=3 / weightb=1 / open_gop=0 / weightp=2 / keyint=250 / keyint_min=23 /
    scenecut=40 / intra_refresh=0 / rc_lookahead=40 / rc=crf / mbtree=1 / crf=21.0 /
    qcomp=0.60 / qpmin=0 / qpmax=69 / qpstep=4 / ip_ratio=1.40 / aq=1:0.80 Language : English Audio ID : 2 Format : AC-3 Format/Info : Audio Coding 3 Mode extension : CM (complete main) Codec ID : A_AC3 Duration : 1h 49mn Bit rate mode : Constant Bit rate : 448 Kbps Channel(s) : 6 channels Channel positions : Front: L C R, Side: L R, LFE Sampling rate : 48.0 KHz Bit depth : 16 bits Compression mode : Lossy Stream size : 351 MiB (20%) Title : EPiK ~ all.hdvnbits.org Language : English

    Một bộ phim hấp dẫn với những pha hành động gay cấn, hồi hộp và có cả những khoảnh khắc ngọt ngào, lãng mạn của tình yêu. Không những thế, các diễn viên chính đều có ngoại hình thu hút

    I Am Number Four là bộ phim hành động hồi hộp, đầy kịch tính về John Smith - một chàng trai với năng lực đặc biệt, người đang trên đường chạy trốn khỏi những kẻ thù độc ác có âm mưu sát hại mình. Liên tục thay đổi thân thế, không ngừng di chuyển từ thành phố này sang thành phố khác cùng người giám hộ Henri, John tưởng như đã không còn mối liên hệ nào với quá khứ.

    Tại thị trấn nhỏ Ohio mà giờ đã được gọi là nhà, John bắt đầu vướng phải những sự kiện nằm ngoài dự kiến, có khả năng làm thay đổi số phận của cậu - tiếng sét ái tình đầu đời, những quyền lực mới mẻ và mối liên hệ với những người chia sẻ số phận như mình.

    Khán giả xem I Am Number Four có thể trông chờ một tác phẩm điện ảnh ly kỳ, với lối xây dựng nhân vật hấp dẫn, lôi cuốn, trong bối cảnh quen thuộc của trường trung học, nhưng ẩn chứa phía sau lại là những hiểm nguy khó lường.

    link:

    http://up.4share.vn/d/370601020e01020f




Chia sẻ trang này