1. THÔNG BÁO TUYỂN ADMIN DIỄN ĐÀN 2013
    Tìm kiếm nhà trọ - Ở ghép
    THÔNG BÁO BÁN ÁO SPKT.NET CHO THÀNH VIÊN DIỄN ĐÀN


    HÃY TÌM KIẾM Ở ĐÂY TRƯỚC KHI ĐẶT CÂU HỎI
    {xen:phrase loading}

[MF] Gặp nhau cuối năm 2012-DVDrip 1.73GB

Thảo luận trong 'Thế giới điện ảnh' bắt đầu bởi alomehere004, 22 Tháng một 2012.

  1. alomehere004 New Member

    Số bài viết: 76
    Đã được thích: 0
    Điểm thành tích: 0
    Tình hình là trên mạng có gặp nhau cuối năm 2012 này từ mấy hơn nay, khổ nỗi là tới 2 phần mà phần nào phần nấy thì ... Y_Y, với dung lượng ổ cứng khiêm tốn của em nên em đã rip và mux 2 phần lại thành 1 phần cho nhẹ và dể theo dõi, nay up lên cho an hem cùng thưởng thức :D

    Mã:
    General
    Unique ID                        : 183502203935732883616806334404163365096 (0x8A0D3D2B4F0621EC8150E76070D568E8)
    Complete name                    : E:\Tao Quan 2012\Tao Quan 2012 - Encode and Rip by alomehere.mkv
    Format                           : Matroska
    File size                        : 1.73 GiB
    Duration                         : 3h 17mn
    Overall bit rate                 : 1 257 Kbps
    Encoded date                     : UTC 2012-01-21 07:17:50
    Writing application              : mkvmerge v5.2.1 ('A Far Off Place') built on Jan  2 2012 23:21:10
    Writing library                  : libebml v1.2.3 + libmatroska v1.3.0
    
    Video
    ID                               : 1
    Format                           : AVC
    Format/Info                      : Advanced Video Codec
    Format profile                   : High@L3.0
    Format settings, CABAC           : Yes
    Format settings, ReFrames        : 4 frames
    Muxing mode                      : Header stripping
    Codec ID                         : V_MPEG4/ISO/AVC
    Duration                         : 3h 17mn
    Bit rate                         : 1 000 Kbps
    Width                            : 700 pixels
    Height                           : 566 pixels
    Display aspect ratio             : 5:4
    Frame rate                       : 25.000 fps
    Color space                      : YUV
    Chroma subsampling               : 4:2:0
    Bit depth                        : 8 bits
    Scan type                        : Progressive
    Bits/(Pixel*Frame)               : 0.101
    Stream size                      : 1.35 GiB (78%)
    Title                            : Encode by alomehere
    Writing library                  : x264 core 116 r2074 2641b9e
    Encoding settings                : cabac=1 / ref=3 / deblock=1:-1:-1 / analyse=0x3:0x113 / me=hex / subme=7 / psy=1 / psy_rd=1.00:0.15 / mixed_ref=1 / me_range=16 / chroma_me=1 / trellis=1 / 8x8dct=1 / cqm=0 / deadzone=21,11 / fast_pskip=1 / chroma_qp_offset=-3 / threads=3 / sliced_threads=0 / nr=0 / decimate=1 / interlaced=0 / bluray_compat=0 / constrained_intra=0 / bframes=3 / b_pyramid=2 / b_adapt=1 / b_bias=0 / direct=1 / weightb=1 / open_gop=0 / weightp=2 / keyint=250 / keyint_min=25 / scenecut=40 / intra_refresh=0 / rc_lookahead=40 / rc=2pass / mbtree=1 / bitrate=1000 / ratetol=1.0 / qcomp=0.60 / qpmin=0 / qpmax=69 / qpstep=4 / cplxblur=20.0 / qblur=0.5 / ip_ratio=1.40 / aq=1:1.00
    
    Audio
    ID                               : 2
    Format                           : AC-3
    Format/Info                      : Audio Coding 3
    Mode extension                   : CM (complete main)
    Muxing mode                      : Header stripping
    Codec ID                         : A_AC3
    Duration                         : 3h 17mn
    Bit rate mode                    : Constant
    Bit rate                         : 256 Kbps
    Channel(s)                       : 2 channels
    Channel positions                : Front: L R
    Sampling rate                    : 48.0 KHz
    Bit depth                        : 16 bits
    Compression mode                 : Lossy
    Delay relative to video          : 64ms
    Stream size                      : 362 MiB (20%)
    Title                            : Encode by alomehere
    Language                         : Vietnamese

    Nội dung em cũng chưa coi, vì chờ tối nay xem cùng gia đình lun :D

    [IMG]


    ------------------------
    Link MF:

    Part 1: http://www.mediafire.com/?h8637no2322caco
    Part 2: http://www.mediafire.com/?8b563bb2l2a6rpa
    Part 3: http://www.mediafire.com/?8xjdyyjhce7jdw9
    Part 4: http://www.mediafire.com/?kspf2ezb2p85vr3
    Part 5: http://www.mediafire.com/?bbbtm4oss24qmqk
    Part 6: http://www.mediafire.com/?lf029cxyq7xnqrm
    Part 7: http://www.mediafire.com/?ji22c1vd04dwzii
    Part 8: http://www.mediafire.com/?cvm8c8va2quevv7
    Part 9: http://www.mediafire.com/?8jjx827ojnt2199
    Part 10: http://www.mediafire.com/?xxwab6n1ixdwmud

    ------------------------

    Link Folder

    ------------------------

    Bản Truyền Hình:

    [IMG]

    Link:

    http://adf.ly/5AejU
    http://adf.ly/5AenX
    http://adf.ly/5AepH
    http://adf.ly/5AesQ
    http://adf.ly/5AetO
    http://adf.ly/5Aetx


    *Pass: alomehere
    **File nén rar đã recovery 10%
  2. daufung007 Member

    Số bài viết: 354
    Đã được thích: 0
    Điểm thành tích: 16
    có hai phần lên youtube coi cũng được bạn ơi..còn bản ngon hơn thì hơn 3G một tí.trên VN-zoom có đó.bạn đem link vô...lỡ dow một tí lun coi cho nó nét..!!
  3. dotdientu New Member

    Số bài viết: 76
    Đã được thích: 0
    Điểm thành tích: 0
  4. tuandang1223 Member

    Số bài viết: 31
    Đã được thích: 0
    Điểm thành tích: 6
    Giới tính: Nam

Chia sẻ trang này