1. THÔNG BÁO TUYỂN ADMIN DIỄN ĐÀN 2013
    Tìm kiếm nhà trọ - Ở ghép
    THÔNG BÁO BÁN ÁO SPKT.NET CHO THÀNH VIÊN DIỄN ĐÀN


    HÃY TÌM KIẾM Ở ĐÂY TRƯỚC KHI ĐẶT CÂU HỎI
    {xen:phrase loading}

[ MF | Online ] Na Tra truyền kỳ - HTV3 lồng tiếng [ Hoạt hình ]

Thảo luận trong 'Thế giới điện ảnh' bắt đầu bởi DUYIT082, 22 Tháng ba 2012.

  1. DUYIT082 Moderator

    Số bài viết: 193
    Đã được thích: 2
    Điểm thành tích: 16


    [IMG]


    Na Tra Truyền Kỳ là câu chuyện hấp dẫn xoay quanh cậu bé Na Tra vốn là hiện thân của Linh Châu Tử, đồ đệ của Thái Ất Chân Nhân trên thượng giới, do phạm phải luật trời, để Hồ Ly ngàn năm ăn trộm đào tiên nên bị giáng xuống trần gian chịu khổ. Khi đầu thai làm con trai của Lý Tịnh, Na tra đã tỏ ra là một cậu bé ngỗ nghịch, ngang bướng, không chịu khuất phục trướNa Tra Truyền Kỳ là câu chuyện hấp dẫn xoay quanh cậu bé Na Tra vốn là hiện thân của Linh Châu Tử, đồ đệ của Thái Ất Chân Nhân trên thượng giới, do phạm phải luật trời, để Hồ Ly ngàn năm ăn trộm đào tiên nên bị giáng xuống trần gian chịu khổ. Khi đầu thai làm con trai của Lý Tịnh, Na tra đã tỏ ra là một cậu bé ngỗ nghịch, ngang bướng, không chịu khuất phục trước kẻ thù. Cậu đã tự mình gây ra các họa lớn khi đối đầu với Ngao Bính - con trai của Đông Hải Long Vương, bắn chết đệ tử của Thạch Cơ Nương Nương…và một trong những cuộc chiến được người xem chờ đợi nhất đó chính là cuộc đối đầu chống lại con cáo 9 đuôi ác độc mê hoặc Trụ Vương, chuyên ức hiếp dân lành tên Đát Kỷ. Nhưng không may, khi chưa kịp ra tay diệt yêu quái, Na Tra đã rơi vào cạm bẫy của Đát Kỷ khiến cậu bé và người cha Lý Tịnh bất hoà.c kẻ thù. Cậu đã tự mình gây ra các họa lớn khi đối đầu với Ngao Bính - con trai của Đông Hải Long Vương, bắn chết đệ tử của Thạch Cơ Nương Nương…và một trong những cuộc chiến được người xem chờ đợi nhất đó chính là cuộc đối đầu chống lại con cáo 9 đuôi ác độc mê hoặc Trụ Vương, chuyên ức hiếp dân lành tên Đát Kỷ. Nhưng không may, khi chưa kịp ra tay diệt yêu quái, Na Tra đã rơi vào cạm bẫy của Đát Kỷ khiến cậu bé và người cha Lý Tịnh bất hoà.


    [IMG]


    Không chỉ có nội dung hấp dẫn, Na Tra Truyền Kỳ còn đem đến cho người xem những cảm nhận sâu sắc về tình cảm gia đình. Một cậu bé có tính tình ngỗ ngược, khẳng khái nhưng lại rất có hiếu với cha mẹ, dám đương đầu với khó khăn và tự chịu trách nhiệm về bản thân sẽ là tấm gương sáng cho các bạn nhỏ noi theo. Mặc dù là thiên tướng nhà trời nhưng Na Tra cũng chỉ là một đứa trẻ với bao suy nghĩ ngây thơ và hành động ngộ nghĩnh khác, chính vì lý do đó mà khán giả nhí sẽ thấy thật gần gũi và thân quen với nhân vật đáng yêu này.


    Link MF: (down nhanh kẻo bị xóa)




    Link torrent: ( reg nik và download nhé, hoàn toàn free )




    Link Fshare: ( cho các bạn xài FPT )


    Link xem online:


    Media Info:



    Mã:
    General
    Complete name : D:\Media\Animation\Na Tra Truyen Ky - SDTV x264-CwP\Na Tra Truyen Ky - Tap 01 - SDTV x264-CwP.mp4
    Format : MPEG-4
    Format profile : Base Media
    Codec ID : isom
    File size : 125 MiB
    Duration : 21mn 53s
    Overall bit rate mode : Variable
    Overall bit rate : 799 Kbps
    Encoded date : UTC 2012-03-20 08:58:22
    Tagged date : UTC 2012-03-20 08:58:22
    Writing application : Yamb 2.1.0.0 [[URL="http://spkt.net/redirect/?url=http%3A%2F%2Fyamb.unite-video.com%5D"]http://yamb.unite-video.com][/URL]
    
    
    Video
    ID : 1
    Format : AVC
    Format/Info : Advanced Video Codec
    Format profile : Baseline@L3.0
    Format settings, CABAC : No
    Format settings, ReFrames : 4 frames
    Codec ID : avc1
    Codec ID/Info : Advanced Video Coding
    Duration : 21mn 53s
    Bit rate : 700 Kbps
    Maximum bit rate : 1 046 Kbps
    Width : 512 pixels
    Height : 384 pixels
    Display aspect ratio : 4:3
    Frame rate mode : Constant
    Frame rate : 25.000 fps
    Color space : YUV
    Chroma subsampling : 4:2:0
    Bit depth : 8 bits
    Scan type : Progressive
    Bits/(Pixel*Frame) : 0.142
    Stream size : 110 MiB (88%)
    Writing library : x264 core 114 r1913 5fd3dce
    Encoding settings : cabac=0 / ref=4 / deblock=1:-1:-1 / analyse=0x1:0x111 / me=umh / subme=7 / psy=1 / psy_rd=1.00:0.00 / mixed_ref=1 / me_range=16 / chroma_me=1 / trellis=2 / 8x8dct=0 / cqm=0 / deadzone=21,11 / fast_pskip=0 / chroma_qp_offset=-2 / threads=3 / sliced_threads=0 / nr=0 / decimate=0 / interlaced=0 / constrained_intra=0 / bframes=0 / weightp=0 / keyint=250 / keyint_min=25 / scenecut=40 / intra_refresh=0 / rc_lookahead=40 / rc=crf / mbtree=1 / crf=1.0 / qcomp=0.60 / qpmin=0 / qpmax=69 / qpstep=4 / vbv_maxrate=700 / vbv_bufsize=700 / crf_max=0.0 / nal_hrd=none / ip_ratio=1.40 / aq=1:0.80
    Encoded date : UTC 2012-03-21 08:36:23
    Tagged date : UTC 2012-03-20 08:58:24
    
    
    Audio
    ID : 2
    Format : AAC
    Format/Info : Advanced Audio Codec
    Format profile : LC
    Codec ID : 40
    Duration : 21mn 53s
    Bit rate mode : Variable
    Bit rate : 96.0 Kbps
    Maximum bit rate : 105 Kbps
    Channel(s) : 2 channels
    Channel positions : Front: L R
    Sampling rate : 44.1 KHz
    Compression mode : Lossy
    Stream size : 15.0 MiB (12%)
    Encoded date : UTC 2012-03-20 08:58:23
    Tagged date : UTC 2012-03-20 08:58:24




    Screenshoots:



    [IMG]




    Nguồn: HDVNbits

Chia sẻ trang này